#TITLE:Whatever;
#SUBTITLE:;
#ARTIST:浜崎あゆみ;
#TITLETRANSLIT:Whatever;
#SUBTITLETRANSLIT:;
#ARTISTTRANSLIT:Ayumi Hamasaki;
#CREDIT:Chu Nhat , 16-8-2009;
#BANNER:Whatever-bn.png;
#BACKGROUND:Whatever-bg.png;
#LYRICSPATH:;
#CDTITLE:Whatever-cd.png;
#MUSIC:Whatever.mp3;
#OFFSET:-0.325;
#SAMPLESTART:160.160;
#SAMPLELENGTH:20.000;
#SELECTABLE:YES;
#DISPLAYBPM:130.000;
#BPMS:0.000=130.000;
#STOPS:;
#BGCHANGES:;
// cache tags:
#FIRSTBEAT:0.000;
#LASTBEAT:728.000;
#SONGFILENAME:Songs/Music V.I.P ^_^/Whatever/Whatever.sm;
#HASMUSIC:1;
#HASBANNER:1;
#MUSICLENGTH:340.096;
// end cache tags

//---------------dance-single - ----------------
#NOTES:
     dance-single:
     :
     Hard:
     16:
     1.000,1.000,1.000,0.041,1.000,2193.000,802.000,14.000,0.000,27.000:
0010
0100
1000
0010
0001
0010
0100
1000
,
0000
0000
0000
0000
0000
0000
0000
0000
0100
0000
0000
0000
1000
0000
0000
0000
0010
0000
0000
0000
0000
0001
0000
0000
0000
0000
0000
0000
1000
0000
0000
0000
,
0010
0001
0010
0100
1000
0100
1000
0001
,
0000
0000
0000
0000
1000
0000
0000
0000
0100
0000
0000
0000
0010
0000
0000
0000
0001
0000
0000
0000
0000
0000
0010
0000
0000
0000
0000
1000
0000
0000
0000
0000
,
0010
1000
0100
0010
0001
0010
0100
0001
,
0000
0000
0000
0000
0100
0000
0010
0000
1000
0000
0000
0001
0000
0000
0100
0000
,
0010
1000
0100
0010
0100
0010
0001
0100
,
0000
0000
0001
0000
0010
0000
0100
0000
1000
0000
0000
0100
0000
0000
0010
0000
,
0001
0100
0010
1000
0100
1000
0010
0100
,
0001
0100
0010
1000
0100
1000
0010
0100
,
0001
0100
0010
1000
0110
1000
0010
0100
,
1001
0100
0010
1000
0101
1000
0010
0100
,
1001
0100
0010
0001
0000
0010
0100
0001
,
0101
1000
0010
0001
0000
0010
0100
0010
,
0101
1000
0100
0010
0000
0010
0100
0001
,
1100
0010
0100
0011
0000
0110
0000
0000
,
2101
0000
0000
0000
0001
0010
0100
0001
,
0000
0000
0010
0000
0000
0000
0001
0000
0000
0000
0100
0000
3010
0000
0100
0001
,
1200
0000
0000
0000
0001
0010
1000
0010
,
0000
0011
0000
1010
0000
1001
0300
0000
,
1010
0100
0010
0001
1010
0100
0010
0001
1100
0010
0001
0010
1100
0010
0001
0010
,
1001
0100
0010
0100
1001
0100
0010
0100
1001
0100
0010
0100
1001
0100
0010
0100
,
1010
0100
0010
0001
1010
0100
0010
0001
0110
1000
0010
0001
0110
1000
0010
0001
,
1100
0010
0100
1000
0011
0100
0010
0001
1100
0001
0010
0100
0011
1000
0110
1000
,
0101
0010
0100
1000
0101
0010
0100
1000
0011
0100
1000
0100
0011
0100
1000
0100
,
1001
0010
0100
0010
1001
0010
0100
0010
1001
0010
0100
0010
1001
0010
0100
0010
,
0101
0010
0100
1000
0101
0010
0100
1000
0110
0001
0100
1000
0110
0001
0110
1000
,
0011
0100
0010
0001
1100
0010
0100
1000
0011
1000
0100
0010
1100
0001
0110
0001
,
1010
0010
0001
0000
1010
0010
0001
0000
1010
0010
0001
0000
1010
0010
0001
0000
,
0101
0001
0100
0000
0101
0001
0100
0000
0101
0001
0100
0000
0101
0001
0100
0000
,
1100
0100
0001
0000
1100
0100
0001
0000
1100
0100
0001
0000
1100
0100
0001
0000
,
0011
0001
0100
0000
0011
0001
0100
0000
0011
0001
0100
0000
0011
0001
0100
0000
,
1001
1000
0100
0000
1001
1000
0100
0000
1001
1000
0100
0000
1001
1000
0100
0000
,
0011
0010
1000
0000
0011
0010
1000
0000
0011
0010
1000
0000
0011
0010
1000
0000
,
1010
1000
0100
0000
1010
1000
0100
0000
1010
1000
0100
0000
1010
1000
0110
0000
,
0101
0100
1000
0000
0101
0100
1000
0000
0101
0100
1000
0010
1100
0001
1000
0000
,
1010
1000
0010
0000
1010
1000
0010
0000
1010
1000
0010
0000
1010
1000
0010
0000
,
0110
0010
0001
0000
0110
0010
0001
0000
0110
0010
0001
0000
0110
0010
0001
0000
,
0011
0001
0010
0000
0011
0001
0010
0000
0011
0001
0010
0000
0011
0001
0010
0000
,
0101
0001
0010
0000
0101
0001
0010
0000
0101
0001
0010
0000
0101
0001
0010
0000
,
1100
1000
0001
0000
1100
1000
0001
0000
1100
1000
0001
0000
1100
1000
0001
0000
,
0110
0100
0001
0000
0110
0100
0001
0000
0110
0100
0001
0000
0110
0100
0001
0000
,
0101
0100
0010
0000
0101
0100
0010
0000
0101
0100
0010
0000
0101
0100
0011
0000
,
1100
0000
0100
0000
0101
0000
0010
0000
1010
0001
0010
1000
0110
0001
1000
0100
,
1010
0010
0100
0000
1010
0010
0100
0000
1010
0010
0100
0000
1010
0010
0100
0000
,
1001
1000
0001
0000
1001
1000
0001
0000
1001
1000
0001
0000
1001
1000
0001
0000
,
1100
0100
0010
0000
1100
0100
0010
0000
1100
0100
0010
0000
1100
0100
0010
0000
,
0111
0100
1000
0000
0110
0100
1000
0000
0110
0100
1000
0000
0110
0100
1000
0000
,
1101
0001
1000
0000
0101
0001
1000
0000
0101
0001
1000
0000
0101
0001
1000
0000
,
1010
1000
0001
0000
1010
1000
0001
0000
1010
1000
0001
0000
1010
1000
0001
0000
,
0011
0010
0001
0000
0011
0010
0001
0000
0011
0010
0001
0000
0011
0010
0001
0000
,
1001
1000
0010
0000
1001
1000
0010
0000
2200
0000
0020
0000
0000
0000
0000
0000
,
3331
0100
1000
0010
1001
0110
1000
0001
1100
0011
0100
1000
0101
1010
0100
0001
,
1100
0011
0100
0001
1010
0101
0010
1000
0101
1010
0100
0010
1001
0110
0001
1000
,
0101
1010
0100
1000
0011
1100
0010
0001
1010
0101
0010
0100
1001
0110
1000
0001
,
0110
1001
0100
0010
1001
0110
1000
0010
1001
0110
1000
0100
1010
0101
0010
0001
,
1010
0001
0010
1000
0110
1001
0010
0100
0011
1100
0001
0010
0101
1010
0001
0100
,
0011
1100
0001
0100
1010
0101
1000
0010
0110
1001
0010
1000
0110
1001
0100
0010
,
0101
1010
0001
0010
1100
0011
1000
0100
1010
0101
1000
0001
0110
1001
0010
0100
,
1001
0110
0001
1000
0110
1001
0010
1000
0110
1001
0010
0001
1100
0001
1100
1100
,
0000
0000
0000
0000
0000
0000
0000
0000
0000
0000
0000
0000
0000
0000
0101
1010
,
0202
0000
0000
0000
0010
1000
1000
0010
,
0000
1000
0000
0010
0000
1010
0303
0000
,
0101
1000
0001
0010
0101
1000
0001
0010
1100
0001
0010
0001
1100
0001
0010
0001
,
0110
1000
0001
1000
0110
1000
0001
1000
0110
1000
0001
1000
0110
1000
0001
1000
,
0101
1000
0001
0010
0101
1000
0001
0010
1001
0100
0001
0010
1001
0100
0001
0010
,
1100
0001
1000
0100
0011
1000
0001
0010
1100
0010
0001
1000
0011
0100
1001
0100
,
1010
0001
1000
0100
1010
0001
1000
0100
0011
1000
0100
1000
0011
1000
0100
1000
,
0110
0001
1000
0001
0110
0001
1000
0001
0110
0001
1000
0001
0110
0001
1000
0010
,
0101
0010
1000
0100
1010
0001
1000
0100
1001
0010
1000
0100
1001
0010
1001
0100
,
0011
1000
0001
0010
1100
0001
1000
0100
0011
1000
0100
0100
1001
0100
0010
0001
,
1100
1000
1000
0000
1100
0100
0100
0000
1100
1000
1000
0000
1100
0100
0100
0000
,
1010
0010
0010
0000
1010
1000
1000
0000
1010
0010
0010
0000
1010
1000
1000
0000
,
1001
0001
0001
0000
1001
1000
1000
0000
1001
0001
0001
0000
1001
1000
1000
0000
,
0110
0100
0100
0000
0110
0010
0010
0000
0110
0100
0100
0000
0110
0010
0010
0000
,
0101
0001
0001
0000
0101
0100
0100
0000
0101
0001
0001
0000
0101
0100
0100
0000
,
0011
0010
0010
0000
0011
0001
0001
0000
0011
0010
0010
0000
0011
0001
0001
0000
,
1010
0100
1010
0001
0110
1000
1100
0011
,
1001
0000
0010
0000
1001
0000
0100
0000
1001
0100
1000
0100
1010
0100
1000
0100
,
0011
0100
1000
0000
1100
0010
0001
0000
0011
0100
1000
0000
1100
0010
0001
0000
,
1010
0100
1000
0000
0101
0010
0001
0000
1010
0100
1000
0000
0101
0010
0001
0000
,
1100
0001
0010
0000
0011
1000
0100
0000
1100
0001
0010
0000
0011
1000
0100
0000
,
1110
0001
0100
0000
0101
1000
0010
0000
1010
0001
0100
0000
0101
1000
0010
0000
,
1101
0010
0100
0000
0011
0100
0010
0000
1100
0010
0100
0000
0011
0100
0010
0000
,
0101
0010
1000
0000
1010
0100
0001
0000
0101
0010
1000
0000
1010
0100
0001
0000
,
1001
0100
0010
0000
1001
0010
0100
0000
1001
0100
0010
0000
1001
0010
0100
0000
,
1100
0001
0100
0000
0011
1000
0010
0000
2200
0000
0002
0000
0000
0000
0000
0000
,
3313
0100
1000
0100
1001
0110
1000
0100
0011
1100
0001
1000
0110
1001
0100
1000
,
0011
1100
0010
0100
1001
0110
0001
0010
0101
1010
0001
0010
1100
0011
0100
0010
,
1100
0011
0100
0001
1010
0101
0010
0100
1001
0110
1000
0100
0011
1100
0010
0001
,
1010
0101
0010
0100
0011
1100
0010
1000
0101
1010
0100
0010
1001
0110
1000
0100
,
0011
1000
0100
0001
1010
0101
0010
0001
0110
1001
0010
0001
1010
0101
0010
0100
,
0011
1100
0010
0001
1010
0101
0010
0100
0011
1100
0010
1000
0110
1001
0100
1000
,
0101
1010
0100
1000
0011
1100
0010
1000
0110
1001
0100
1000
0110
1001
0100
0010
,
1100
0011
0100
1000
0101
1010
0100
0010
1001
0110
1000
0100
1010
0001
0110
0110
,
1001
0010
0100
1000
0110
1001
0100
0010
0101
1010
0100
1000
0011
1100
0010
1000
,
0101
1010
0100
0001
0110
1001
0100
0010
1100
0011
0100
1000
0101
1010
0100
1000
,
0110
1001
0010
0001
1010
0101
1000
0010
1100
0011
0100
0010
1001
0110
1000
0100
,
1010
0101
0010
0001
0110
1001
0100
1000
0011
1100
0010
1000
0101
1010
0001
0010
,
1100
0001
1000
0010
1001
0110
1000
0001
1010
0101
1000
0100
0011
1100
0010
0001
,
0110
1001
0010
0100
1010
0101
0010
0100
0011
1100
0001
0100
1010
0001
1010
0100
,
0011
1000
0100
0001
0110
1001
0010
0001
1010
0101
0010
1000
0011
1100
0010
0001
,
0110
1001
0100
1000
0101
1010
0100
0010
1100
0011
0100
1000
0101
0010
1100
1100
,
1101
0000
0010
0000
1001
0000
0100
0000
1001
0000
0010
0000
1001
0000
0100
0010
,
1001
0010
1100
0010
1001
0101
1010
0110
,
1001
0000
0101
0000
0100
0000
1010
0000
0001
0000
1100
0000
0011
0000
0010
0100
,
1010
0100
0011
1000
0110
1001
0101
0011
,
1000
0000
0101
0000
0010
0000
1100
0000
1000
0000
0011
0000
0110
0000
1100
0010
,
0001
0000
0010
0000
1100
0000
0010
1000
0101
0010
0001
0010
1100
0000
0011
0000
,
0110
0000
1010
0000
0001
0000
0110
0000
1000
0000
0101
0000
1010
0000
1001
0010
,
1100
0000
0001
0000
0110
0000
1000
0000
1100
0000
0110
0000
1001
0000
0101
0101
,
0000
0010
0000
1000
0000
0100
0000
0000
,
0011
1100
0010
0100
1001
0110
0100
1000
0011
1100
0100
0010
0101
1010
0100
0010
,
1001
0110
1000
0100
0011
1100
0001
0010
0101
1010
0010
1000
0110
1001
0100
0010
,
1100
0011
0001
0010
1100
0011
0100
0010
0101
1010
1000
0100
1001
0110
0010
0001
,
1010
0101
1000
0010
0110
1001
0010
0100
1010
0101
0010
0100
0011
1100
0001
1000
,
0101
0001
0010
1000
0011
1100
0010
0001
0110
1001
0001
0010
1100
0011
1000
0100
,
0101
1010
0100
0010
1001
0110
0100
1000
0101
1010
0100
0001
1100
0001
1010
0100
,
1001
0110
1000
0100
0011
1100
0010
0100
1001
0110
0100
0001
1010
0101
0001
0010
,
1100
0011
1000
0100
1010
0101
0010
0100
1001
0110
1000
0010
0101
0010
1100
0110
,
0011
1100
0010
0100
1001
0110
1000
0100
0011
1100
0001
0010
0101
1010
0100
1000
,
0110
1001
1000
0100
0011
1100
0010
0100
1010
0101
0001
0010
1100
0011
1000
0100
,
1010
0101
0100
1000
0110
1001
0100
0010
1100
0011
0100
1000
0101
1010
0100
0010
,
1001
0110
0010
0001
1010
0101
1000
0100
0011
1100
0010
1000
0101
1010
0100
1000
,
0110
0001
0010
1000
1100
0011
0100
0010
0101
1010
0100
0010
1001
0110
0100
0001
,
1010
0101
1000
0001
0110
1001
0001
0100
0011
1100
0010
1000
0101
1000
0110
0001
,
1100
0011
1000
0010
1010
0101
0010
1000
0110
1001
0010
0100
0011
1100
0001
0010
,
0101
1010
0100
1000
0011
1100
1000
0100
1010
0101
0010
0001
1010
0100
0011
0011
,
0000
0000
0000
0000
,
1001
0100
1001
0010
1001
0100
1001
0010
,
1100
0010
1100
0001
1100
0010
1100
0001
,
0110
1000
0110
0001
0110
1000
0110
0001
,
1010
0100
1010
0001
1010
0100
1010
0001
,
0011
0100
0011
1000
0011
0100
0011
1000
,
0110
0100
0110
0010
0110
0100
0110
0010
,
0101
0001
0101
0100
0101
0001
0101
0100
,
1010
0001
1010
0100
1010
0000
0000
0000
,
1010
0100
1000
0100
1001
0110
0001
1000
0011
1100
0010
0001
1010
0101
0010
1000
,
0011
1100
0010
1000
0101
1010
0100
0001
1010
0101
0010
0100
1001
0110
1000
0001
,
1010
0101
0010
0001
1100
0011
0100
1000
0101
1010
0100
0010
1001
0110
1000
0001
,
0110
1001
0010
0100
1001
0110
1000
0100
0110
1001
0100
0010
0101
1010
0100
1000
,
0101
1000
0100
0001
0110
1001
0100
0010
1100
0011
1000
0100
1010
0101
1000
0010
,
1100
0011
1000
0010
0101
1010
0001
0100
1001
0110
0001
0100
1001
0110
0010
0100
,
1010
0101
1000
0100
0011
1100
0001
0010
0101
1010
0001
1000
0110
1001
0100
0010
,
1001
0110
1000
0100
1001
0110
0001
0010
1001
0110
0100
1000
0011
1000
0101
0101
,
1010
0100
1000
0010
1001
0110
1000
0001
1100
0011
0100
1000
0101
1010
0100
0001
,
1100
0011
0100
0001
1010
0101
0010
1000
0101
1010
0100
0010
1001
0110
0001
1000
,
0101
1010
0100
1000
0011
1100
0010
0001
1010
0101
0010
0100
1001
0110
1000
0001
,
0110
1001
0100
0010
1001
0110
1000
0010
1001
0110
1000
0100
1010
0101
0010
0001
,
1010
0001
0010
1000
0110
1001
0010
0100
0011
1100
0001
0010
0101
1010
0001
0100
,
0011
1100
0001
0100
1010
0101
1000
0010
0110
1001
0010
1000
0110
1001
0100
0010
,
0101
1010
0001
0010
1100
0011
1000
0100
1010
0101
1000
0001
0110
1001
0010
0100
,
1001
0110
0001
1000
0110
1001
0010
1000
0110
1001
0010
0001
1100
0001
1100
1100
,
0000
0000
0000
0000
0000
0000
0000
0000
0000
0000
0000
0000
0000
0000
0110
1001
,
0220
0000
0000
0000
0001
1000
1000
0001
,
0000
1000
0000
0001
0000
1001
0330
0000
,
1010
0001
1000
0100
1010
0001
1000
0100
0011
1000
0100
1000
0011
1000
0100
1000
,
0110
0001
1000
0001
0110
0001
1000
0001
0110
0001
1000
0001
0110
0001
1000
0001
,
1010
0001
1000
0100
1010
0001
1000
0100
1001
0010
1000
0100
1001
0010
1000
0100
,
0011
1000
0001
0010
1100
0001
1000
0100
0011
0100
1000
0001
1100
0010
1001
0010
,
0101
1000
0001
0010
0101
1000
0001
0010
1100
0001
0010
0001
1100
0001
0010
0001
,
0110
1000
0001
1000
0110
1000
0001
1000
0110
1000
0001
1000
0110
1000
0001
1000
,
0101
1000
0001
0010
0101
1000
0001
0010
1001
0100
0001
0010
1001
0100
1001
0010
,
1100
0001
1000
0100
0011
1000
0001
0010
1100
0001
0010
0010
1001
0100
1001
0010
,
0001
0010
0100
0000
0001
0010
1000
0000
0100
0010
1000
0000
1000
0010
0100
0000
,
0100
0010
0100
0000
0010
0001
0100
0000
0010
0001
0010
0000
0001
0010
0100
0000
,
0010
0001
1000
0000
0100
0001
0100
0000
0010
0001
1000
0000
0001
0100
1000
0000
,
0010
0100
1000
0000
0100
0001
0010
0000
0010
0001
0010
0000
0010
0100
0001
0000
,
0100
0010
0001
0000
1000
0100
0001
0000
0100
1000
0010
0000
0010
1000
0100
0000
,
0010
0100
0010
0000
0010
0100
0001
0000
0010
0100
0010
0000
0100
0010
0001
0000
,
0100
1000
0001
0000
0010
1000
0010
0000
0100
1000
0001
0000
1000
0010
0001
0000
,
1000
0100
0010
0000
0010
1000
0100
0000
0010
0100
0010
0000
0010
0001
0100
0000
,
0001
0100
0010
0001
0010
0100
0010
0001
,
0100
0000
1000
0000
0100
0000
0010
0000
0100
0000
0000
0001
0000
0000
0010
0000
,
0001
0100
0010
0001
0010
1000
0100
0001
,
0100
0000
1000
0000
0100
0000
0010
0000
0100
0000
0000
0001
0000
0000
0100
0000
,
0001
0100
0010
0001
0010
0100
0010
0001
,
0100
0000
1000
0000
0100
0000
0010
0000
0100
0000
0000
0001
0000
0000
0010
0000
,
0001
0100
0010
0001
0010
1000
0100
0001
,
0100
0000
1000
0000
0100
0000
0010
0000
0100
0000
0000
0001
0000
0000
0100
0000
,
2002
0000
0000
0000
,
0000
0000
0000
0000
,
3003
0000
0000
0000
;
